<?xml version="1.0" standalone="no"?>
<!DOCTYPE svg PUBLIC "-//W3C//DTD SVG 1.1//EN" "http://www.w3.org/Graphics/SVG/1.1/DTD/svg11.dtd" >
<svg xmlns="http://www.w3.org/2000/svg" xmlns:xlink="http://www.w3.org/1999/xlink" version="1.1">
<metadata>
Created by FontForge 20170924 at Tue Jul 28 12:22:10 2020
 By www-data
copyright missing
</metadata>
<defs>
<font id="uwa-icons-regular-Regular" horiz-adv-x="800" >
  <font-face 
    font-family="uwa-icons-regular"
    font-weight="400"
    font-stretch="normal"
    units-per-em="1000"
    panose-1="0 0 5 0 0 0 0 0 0 0"
    ascent="800"
    descent="-200"
    x-height="600"
    cap-height="590"
    bbox="-1 -297.057 1499.25 898"
    underline-thickness="50"
    underline-position="-100"
    unicode-range="U+000D-FF5E"
  />
<missing-glyph horiz-adv-x="500" 
d="M0 0v700h500v-700h-500zM250 395l170 255h-340zM50 605v-510l170 255zM280 350l170 -255v510zM80 50h340l-170 255z" />
    <glyph glyph-name=".notdef" horiz-adv-x="500" 
d="M0 0v700h500v-700h-500zM250 395l170 255h-340zM50 605v-510l170 255zM280 350l170 -255v510zM80 50h340l-170 255z" />
    <glyph glyph-name="A" unicode="A" horiz-adv-x="1000" 
d="M850 400v-200h-250v-250h-200v250h-250v200h250v250h200v-250h250z" />
    <glyph glyph-name="A" unicode="a" horiz-adv-x="1000" 
d="M850 400v-200h-250v-250h-200v250h-250v200h250v250h200v-250h250z" />
    <glyph glyph-name="Aacute" unicode="&#xc1;" horiz-adv-x="850" 
d="M600 410h30c11 0 20 -9 20 -20v-320c0 -11 -9 -20 -20 -20h-410c-11 0 -20 9 -20 20v320c0 11 9 20 20 20h30v73c0 206 350 206 350 0v-73zM326 483v-73h198v73c0 101 -198 101 -198 0zM464 161l-9 59c9 8 14 19 14 33c0 59 -88 57 -88 0c0 -14 5 -25 15 -33l-10 -59h78z
" />
    <glyph glyph-name="Aacute" unicode="&#xe1;" horiz-adv-x="850" 
d="M600 410h30c11 0 20 -9 20 -20v-320c0 -11 -9 -20 -20 -20h-410c-11 0 -20 9 -20 20v320c0 11 9 20 20 20h30v73c0 206 350 206 350 0v-73zM326 483v-73h198v73c0 101 -198 101 -198 0zM464 161l-9 59c9 8 14 19 14 33c0 59 -88 57 -88 0c0 -14 5 -25 15 -33l-10 -59h78z
" />
    <glyph glyph-name="Adieresis" unicode="&#xc4;" 
d="M133 700h534c73 0 133 -60 133 -133v-534c0 -73 -60 -133 -133 -133h-534c-9 0 -18 1 -27 3c-60 12 -106 66 -106 130v534c0 73 60 133 133 133zM250 600l-100 -100h100v100zM650 238c4 53 -3 216 -11 257c-3 21 -14 34 -31 41c-15 5 -41 10 -78 14c-26 3 -53 3 -82 2
c-2 19 -11 31 -27 37c-17 7 -44 10 -81 10c-30 0 -40 -30 -40 -49v-71c0 -12 -10 -28 -22 -29h-78c-9 0 -17 -2 -25 -5c-9 -4 -24 -19 -24 -31c0 -7 1 -18 2 -31c11 -78 22 -130 35 -157c5 -11 12 -19 23 -24c31 -14 70 -23 118 -28c28 -7 50 -9 59 11c1 4 3 9 5 14
c7 23 11 47 11 72h2c0 -40 11 -64 32 -71c9 -3 32 -8 71 -13c31 -4 42 -17 42 -80c0 -41 -5 -46 -50 -46c-30 0 -51 -1 -51 28c0 21 20 21 41 21c4 0 4 2 4 6c-1 3 -3 16 0 24c0 3 6 8 -1 10c-64 6 -94 -5 -94 -71c0 -65 24 -80 109 -80c72 0 91 7 116 86c9 27 18 78 25 153
zM535 350c20 -1 30 -15 30 -43c-11 5 -24 8 -40 9c-6 0 -14 -1 -23 -2c3 21 10 37 33 36z" />
    <glyph glyph-name="Adieresis" unicode="&#xe4;" 
d="M133 700h534c73 0 133 -60 133 -133v-534c0 -73 -60 -133 -133 -133h-534c-9 0 -18 1 -27 3c-60 12 -106 66 -106 130v534c0 73 60 133 133 133zM250 600l-100 -100h100v100zM650 238c4 53 -3 216 -11 257c-3 21 -14 34 -31 41c-15 5 -41 10 -78 14c-26 3 -53 3 -82 2
c-2 19 -11 31 -27 37c-17 7 -44 10 -81 10c-30 0 -40 -30 -40 -49v-71c0 -12 -10 -28 -22 -29h-78c-9 0 -17 -2 -25 -5c-9 -4 -24 -19 -24 -31c0 -7 1 -18 2 -31c11 -78 22 -130 35 -157c5 -11 12 -19 23 -24c31 -14 70 -23 118 -28c28 -7 50 -9 59 11c1 4 3 9 5 14
c7 23 11 47 11 72h2c0 -40 11 -64 32 -71c9 -3 32 -8 71 -13c31 -4 42 -17 42 -80c0 -41 -5 -46 -50 -46c-30 0 -51 -1 -51 28c0 21 20 21 41 21c4 0 4 2 4 6c-1 3 -3 16 0 24c0 3 6 8 -1 10c-64 6 -94 -5 -94 -71c0 -65 24 -80 109 -80c72 0 91 7 116 86c9 27 18 78 25 153
zM535 350c20 -1 30 -15 30 -43c-11 5 -24 8 -40 9c-6 0 -14 -1 -23 -2c3 21 10 37 33 36z" />
    <glyph glyph-name="Agrave" unicode="&#xc0;" 
d="M783 691c11 -9 17 -29 17 -59v-507c0 -23 -15 -38 -59 -66l-285 -159h-112l-283 159c-40 23 -60 45 -61 66v507c0 30 6 50 17 59s27 12 50 8l277 -149h112l277 149c22 5 39 2 50 -8zM100 140l250 -140v450l-250 132v-442zM450 0l250 140v442l-250 -132v-450z" />
    <glyph glyph-name="B" unicode="B" horiz-adv-x="1400" 
d="M1050 650h200v-700h-200v700zM450 450h200v-500h-200v500zM750 300h200v-350h-200v350zM150 150h200v-200h-200v200z" />
    <glyph glyph-name="C" unicode="C" 
d="M400 300l-205 128l-195 -124v83l200 129l198 -125l213 176l-70 73l259 60l-77 -252l-68 72zM600 250h200v-350h-200v350zM0 -100v300h200v-300h-200zM300 -100v200h200v-200h-200z" />
    <glyph glyph-name="D" unicode="D" 
d="M262 396l167 -192l167 192h-334z" />
    <glyph glyph-name="Eth" unicode="&#xd0;" 
d="M133 700h534c73 0 133 -60 133 -133v-534c0 -73 -60 -133 -133 -133h-534c-9 0 -18 1 -27 3c-60 12 -106 66 -106 130v534c0 73 60 133 133 133zM600 43v514c0 24 -18 43 -41 43h-318c-23 0 -41 -19 -41 -43v-514c0 -24 18 -43 41 -43h318c23 0 41 19 41 43zM250 200v350
h300v-350h-300zM365 136c46 46 117 -25 71 -71c-47 -47 -118 24 -71 71z" />
    <glyph glyph-name="Eth" unicode="&#xf0;" 
d="M133 700h534c73 0 133 -60 133 -133v-534c0 -73 -60 -133 -133 -133h-534c-9 0 -18 1 -27 3c-60 12 -106 66 -106 130v534c0 73 60 133 133 133zM600 43v514c0 24 -18 43 -41 43h-318c-23 0 -41 -19 -41 -43v-514c0 -24 18 -43 41 -43h318c23 0 41 19 41 43zM250 200v350
h300v-350h-300zM365 136c46 46 117 -25 71 -71c-47 -47 -118 24 -71 71z" />
    <glyph glyph-name="E" unicode="E" 
d="M596 254l-167 192l-167 -192h334z" />
    <glyph glyph-name="Eacute" unicode="&#xc9;" 
d="M133 700h534c73 0 133 -60 133 -133v-534c0 -73 -60 -133 -133 -133h-534c-9 0 -18 1 -27 3c-60 12 -106 66 -106 130v534c0 73 60 133 133 133zM550 500v50h-300v-50c35 -1 58 -1 69 0c17 0 31 -17 31 -32v-336c0 -15 -14 -32 -31 -31h-69v-51h300v51h-69
c-17 -1 -31 16 -31 31v336c0 15 14 32 31 32h69z" />
    <glyph glyph-name="uni0206" unicode="&#x206;" 
d="M0 700h800v-800h-800v800zM596 583c-70 70 -176 -36 -106 -106s176 36 106 106zM71 363c1 -41 35 -75 76 -75c41 1 75 35 74 76c0 41 -34 75 -75 74c-41 0 -75 -34 -75 -75zM524 22c145 61 215 231 155 379l-528 -222c60 -148 226 -218 373 -157z" />
    <glyph glyph-name="F" unicode="F" 
d="M500 492l-192 -167l192 -167v334z" />
    <glyph glyph-name="G" unicode="G" 
d="M300 158l192 167l-192 167v-334z" />
    <glyph glyph-name="H" unicode="H" 
d="M100 50l300 275l-300 275v-550zM400 50l300 275l-300 275v-550z" />
    <glyph glyph-name="I" unicode="I" horiz-adv-x="850" 
d="M160 590c146 146 384 146 530 0s146 -384 0 -530s-384 -146 -530 0s-146 384 0 530zM231 131c106 -107 282 -107 389 0c106 106 106 282 0 389c-107 106 -283 106 -389 0c-107 -107 -107 -283 0 -389zM520 488c27 -20 41 -49 41 -87c0 -23 -6 -43 -18 -59
c-9 -11 -22 -23 -39 -37l-19 -15c-11 -8 -18 -17 -21 -28c-2 -7 -3 -18 -3 -32h-74c1 31 4 52 9 63s17 25 36 40l20 16c5 3 10 9 15 16c7 8 11 19 11 32s-4 26 -12 38c-8 11 -23 16 -44 16c-20 0 -35 -7 -44 -20s-13 -28 -13 -44h-78c2 51 20 88 54 109c21 14 47 21 78 21
c40 0 74 -10 101 -29zM388 114v75h75v-75h-75z" />
    <glyph glyph-name="J" unicode="J" horiz-adv-x="850" 
d="M50 325c0 207 168 375 375 375s375 -168 375 -375c0 -208 -168 -375 -375 -375s-375 167 -375 375zM150 325c0 -152 123 -275 275 -275s275 123 275 275c0 151 -123 275 -275 275s-275 -124 -275 -275zM424 208l-167 192h334z" />
    <glyph glyph-name="K" unicode="K" horiz-adv-x="850" 
d="M160 590c146 146 384 146 530 0s146 -384 0 -530s-384 -146 -530 0s-146 384 0 530zM231 131c106 -107 282 -107 389 0c106 106 106 282 0 389c-107 106 -283 106 -389 0c-107 -107 -107 -283 0 -389zM257 250l167 192l167 -192h-334z" />
    <glyph glyph-name="L" unicode="L" horiz-adv-x="850" 
d="M160 590c146 146 384 146 530 0s146 -384 0 -530s-384 -146 -530 0s-146 384 0 530zM231 131c106 -107 282 -107 389 0c106 106 106 282 0 389c-107 106 -283 106 -389 0c-107 -107 -107 -283 0 -389zM500 158l-192 167l192 167v-334z" />
    <glyph glyph-name="M" unicode="M" horiz-adv-x="850" 
d="M425 700c208 0 375 -168 375 -375s-167 -375 -375 -375c-207 0 -375 168 -375 375s168 375 375 375zM425 50c152 0 275 123 275 275s-123 275 -275 275c-151 0 -275 -123 -275 -275s124 -275 275 -275zM350 158v334l192 -167z" />
    <glyph glyph-name="N" unicode="N" horiz-adv-x="850" 
d="M160 590c146 146 384 146 530 0s146 -384 0 -530s-384 -146 -530 0s-146 384 0 530zM231 131c106 -107 282 -107 389 0c106 106 106 282 0 389c-107 106 -283 106 -389 0c-107 -107 -107 -283 0 -389zM593 417l26 -73l-128 -42l79 -110l-65 -47l-76 115l-78 -115l-67 47
l80 110l-129 42l27 73l126 -45v128h77v-127z" />
    <glyph glyph-name="Ntilde" unicode="&#xd1;" 
d="M133 700h534c73 0 133 -60 133 -133v-534c0 -73 -60 -133 -133 -133h-534c-9 0 -18 1 -27 3c-60 12 -106 66 -106 130v534c0 73 60 133 133 133zM650 208v127c-1 7 -2 11 -3 14l-9 8c-3 2 -13 3 -32 4c-19 0 -31 2 -36 7c-7 6 -11 20 -13 42c-3 20 -8 38 -15 54
c-21 44 -78 81 -122 86h-111c-87 0 -159 -71 -159 -158v-184c0 -87 72 -158 159 -158h182c87 0 158 71 159 158zM399 361h-88c-41 0 -41 60 0 60h88c40 0 40 -60 0 -60zM311 240h179c39 0 40 -60 0 -60h-179c-41 0 -41 60 0 60z" />
    <glyph glyph-name="Ntilde" unicode="&#xf1;" 
d="M133 700h534c73 0 133 -60 133 -133v-534c0 -73 -60 -133 -133 -133h-534c-9 0 -18 1 -27 3c-60 12 -106 66 -106 130v534c0 73 60 133 133 133zM650 208v127c-1 7 -2 11 -3 14l-9 8c-3 2 -13 3 -32 4c-19 0 -31 2 -36 7c-7 6 -11 20 -13 42c-3 20 -8 38 -15 54
c-21 44 -78 81 -122 86h-111c-87 0 -159 -71 -159 -158v-184c0 -87 72 -158 159 -158h182c87 0 158 71 159 158zM399 361h-88c-41 0 -41 60 0 60h88c40 0 40 -60 0 -60zM311 240h179c39 0 40 -60 0 -60h-179c-41 0 -41 60 0 60z" />
    <glyph glyph-name="O" unicode="O" horiz-adv-x="850" 
d="M425 700c208 0 375 -168 375 -375c0 -208 -167 -375 -375 -375c-207 0 -375 167 -375 375c0 207 168 375 375 375zM150 325c0 -57 16 -109 49 -156l382 382c-47 33 -99 49 -156 49c-151 0 -275 -124 -275 -275zM425 50c152 0 275 123 275 275c0 58 -16 110 -48 155
l-382 -382c45 -32 97 -48 155 -48z" />
    <glyph glyph-name="Ocircumflex" unicode="&#xd4;" 
d="M133 700h534c73 0 133 -60 133 -133v-534c0 -73 -60 -133 -133 -133h-534c-9 0 -18 1 -27 3c-60 12 -106 66 -106 130v534c0 73 60 133 133 133zM541 56c38 33 57 76 57 127c0 22 -3 41 -9 57c-6 17 -15 32 -27 45c-13 13 -27 24 -40 32c-15 9 -31 17 -48 24
c-24 11 -43 18 -56 23c-23 9 -42 17 -59 25c-21 10 -38 24 -51 41c-12 16 -18 37 -18 62c0 49 43 87 94 87c25 0 46 -5 63 -14c16 -9 30 -22 43 -38c13 -18 23 -37 30 -56c9 -24 15 -45 20 -63h33l-3 193h-33l-17 -28c-17 11 -37 21 -58 29c-20 9 -44 13 -72 13
c-25 0 -48 -4 -68 -13c-22 -8 -41 -19 -57 -33c-17 -15 -29 -32 -38 -51c-9 -21 -14 -42 -14 -63c0 -39 9 -71 28 -94c18 -24 43 -43 76 -58c27 -11 112 -44 121 -48c52 -20 79 -66 79 -111c0 -17 -2 -31 -7 -42c-4 -13 -10 -24 -19 -32c-9 -9 -21 -16 -34 -21
c-16 -5 -33 -8 -50 -8c-25 0 -47 5 -66 15c-19 8 -35 21 -50 38c-16 18 -28 37 -37 56c-9 21 -17 43 -24 67h-33l5 -200h33l18 30c21 -12 43 -22 68 -29c26 -8 52 -12 78 -12c57 0 105 17 142 50z" />
    <glyph glyph-name="Ocircumflex" unicode="&#xf4;" 
d="M133 700h534c73 0 133 -60 133 -133v-534c0 -73 -60 -133 -133 -133h-534c-9 0 -18 1 -27 3c-60 12 -106 66 -106 130v534c0 73 60 133 133 133zM541 56c38 33 57 76 57 127c0 22 -3 41 -9 57c-6 17 -15 32 -27 45c-13 13 -27 24 -40 32c-15 9 -31 17 -48 24
c-24 11 -43 18 -56 23c-23 9 -42 17 -59 25c-21 10 -38 24 -51 41c-12 16 -18 37 -18 62c0 49 43 87 94 87c25 0 46 -5 63 -14c16 -9 30 -22 43 -38c13 -18 23 -37 30 -56c9 -24 15 -45 20 -63h33l-3 193h-33l-17 -28c-17 11 -37 21 -58 29c-20 9 -44 13 -72 13
c-25 0 -48 -4 -68 -13c-22 -8 -41 -19 -57 -33c-17 -15 -29 -32 -38 -51c-9 -21 -14 -42 -14 -63c0 -39 9 -71 28 -94c18 -24 43 -43 76 -58c27 -11 112 -44 121 -48c52 -20 79 -66 79 -111c0 -17 -2 -31 -7 -42c-4 -13 -10 -24 -19 -32c-9 -9 -21 -16 -34 -21
c-16 -5 -33 -8 -50 -8c-25 0 -47 5 -66 15c-19 8 -35 21 -50 38c-16 18 -28 37 -37 56c-9 21 -17 43 -24 67h-33l5 -200h33l18 30c21 -12 43 -22 68 -29c26 -8 52 -12 78 -12c57 0 105 17 142 50z" />
    <glyph glyph-name="Otilde" unicode="&#xd5;" 
d="M133 700h534c73 0 133 -60 133 -133v-534c0 -73 -60 -133 -133 -133h-534c-9 0 -18 1 -27 3c-60 12 -106 66 -106 130v534c0 73 60 133 133 133zM400 447c17 0 32 -15 32 -32v-37l41 -19l61 19v42c-3 72 -61 130 -134 130c-72 0 -131 -57 -134 -129v-192
c0 -38 -66 -39 -66 0v72h-100v-75c0 -75 59 -134 134 -134c73 0 133 59 134 132v191c0 17 13 32 32 32zM700 226v75h-100v-72c0 -38 -66 -39 -66 0v79l-61 -19l-41 19v-83c0 -175 268 -176 268 1z" />
    <glyph glyph-name="Otilde" unicode="&#xf5;" 
d="M133 700h534c73 0 133 -60 133 -133v-534c0 -73 -60 -133 -133 -133h-534c-9 0 -18 1 -27 3c-60 12 -106 66 -106 130v534c0 73 60 133 133 133zM400 447c17 0 32 -15 32 -32v-37l41 -19l61 19v42c-3 72 -61 130 -134 130c-72 0 -131 -57 -134 -129v-192
c0 -38 -66 -39 -66 0v72h-100v-75c0 -75 59 -134 134 -134c73 0 133 59 134 132v191c0 17 13 32 32 32zM700 226v75h-100v-72c0 -38 -66 -39 -66 0v79l-61 -19l-41 19v-83c0 -175 268 -176 268 1z" />
    <glyph glyph-name="P" unicode="P" horiz-adv-x="850" 
d="M350 438v149c-116 -33 -200 -141 -200 -265c0 -65 20 -122 61 -172l-76 -66c-57 69 -85 149 -85 238c0 180 127 332 300 368v169l242 -210zM638 494l76 65c113 -137 113 -339 0 -476c-57 -69 -129 -112 -215 -129v-169l-242 210l242 211v-149c116 32 200 140 200 264
c0 65 -20 123 -61 173z" />
    <glyph glyph-name="Q" unicode="Q" horiz-adv-x="850" 
d="M642 495l75 65c55 -68 83 -146 83 -235c0 -207 -167 -375 -375 -375c-207 0 -375 168 -375 375c0 180 128 332 300 367v168l242 -210l-242 -211v150c-116 -32 -200 -140 -200 -264c0 -152 124 -275 275 -275c152 0 275 123 275 275c0 63 -19 119 -58 170z" />
    <glyph glyph-name="R" unicode="R" horiz-adv-x="850" 
d="M160 590c146 146 384 146 530 0s146 -384 0 -530s-384 -146 -530 0s-146 384 0 530zM231 131c106 -107 282 -107 389 0c106 106 106 282 0 389c-107 106 -283 106 -389 0c-107 -107 -107 -283 0 -389zM469 367l166 -42c-103 -28 -170 -44 -201 -49c-1 -1 -4 -1 -8 -1h-1
c-28 0 -50 22 -50 50v7c3 28 23 135 39 208l11 55c21 -100 35 -176 44 -228z" />
    <glyph glyph-name="Racute" unicode="&#x154;" horiz-adv-x="1450" 
d="M394 309l147 391l91 -204c-15 -34 -25 -71 -31 -111l-54 121l-131 -349l-160 214l-142 -246l-64 37l197 342zM1290 590c73 -73 110 -162 110 -265s-36 -191 -109 -264c-74 -74 -163 -111 -266 -111s-191 37 -264 110c-74 74 -111 162 -111 265c0 105 37 193 111 265
c73 73 161 110 264 110c104 0 192 -37 265 -110zM1220 131c54 53 81 118 81 194s-27 141 -81 195c-53 53 -118 80 -195 80c-152 0 -274 -122 -274 -275c0 -76 27 -141 80 -194c54 -54 119 -81 194 -81c76 0 141 27 195 81zM1070 367l165 -42c-123 -33 -193 -50 -209 -50h-1
c-13 0 -25 5 -35 15c-9 9 -14 20 -14 35v7c2 27 15 97 39 208l10 55c20 -96 35 -172 45 -228z" />
    <glyph glyph-name="Racute" unicode="&#x155;" horiz-adv-x="1450" 
d="M394 309l147 391l91 -204c-15 -34 -25 -71 -31 -111l-54 121l-131 -349l-160 214l-142 -246l-64 37l197 342zM1290 590c73 -73 110 -162 110 -265s-36 -191 -109 -264c-74 -74 -163 -111 -266 -111s-191 37 -264 110c-74 74 -111 162 -111 265c0 105 37 193 111 265
c73 73 161 110 264 110c104 0 192 -37 265 -110zM1220 131c54 53 81 118 81 194s-27 141 -81 195c-53 53 -118 80 -195 80c-152 0 -274 -122 -274 -275c0 -76 27 -141 80 -194c54 -54 119 -81 194 -81c76 0 141 27 195 81zM1070 367l165 -42c-123 -33 -193 -50 -209 -50h-1
c-13 0 -25 5 -35 15c-9 9 -14 20 -14 35v7c2 27 15 97 39 208l10 55c20 -96 35 -172 45 -228z" />
    <glyph glyph-name="S" unicode="S" horiz-adv-x="850" 
d="M427 699v1c205 -1 373 -168 373 -375s-168 -375 -375 -375s-375 168 -375 375s168 374 373 375v-1c0 -11 -25 -170 -37 -254c-9 -61 -14 -99 -16 -113v-7c0 -31 24 -56 55 -56h2c1 0 2 0 4 1h5l296 55c-130 21 -216 37 -258 46c-4 24 -47 268 -47 328z" />
    <glyph glyph-name="uni0218" unicode="&#x218;" horiz-adv-x="1400" 
d="M1224 301c-73 -233 -292 -399 -544 -399s-471 166 -544 399c5 19 11 22 22 22c87 -197 283 -305 522 -305c237 0 434 113 521 310c5 1 9 0 13 -4c3 -5 7 -12 10 -23zM217 -22c33 0 60 -27 60 -60c0 -32 -27 -59 -60 -59c-32 0 -59 27 -59 59c0 33 27 60 59 60zM1083 -82
c0 79 119 79 119 0c0 -78 -119 -77 -119 0zM889 -156c56 55 139 -29 84 -84s-141 29 -84 84zM429 -139c79 0 79 -118 0 -118c-78 0 -78 118 0 118zM638 -195c55 57 141 -29 85 -84c-57 -55 -140 28 -85 84z" />
    <glyph glyph-name="T" unicode="T" horiz-adv-x="850" 
d="M425 700c208 0 375 -168 375 -375s-167 -375 -375 -375c-207 0 -375 168 -375 375s168 375 375 375zM425 50c152 0 275 123 275 275s-123 275 -275 275c-151 0 -275 -123 -275 -275s124 -275 275 -275zM465 528c21 0 34 -16 34 -36c0 -25 -19 -48 -46 -48
c-23 0 -34 13 -34 38c0 23 18 46 46 46zM442 180c7 0 20 8 39 25l11 -16c-40 -44 -87 -67 -108 -67c-23 0 -29 22 -19 66l32 137c3 14 3 21 0 21c-5 0 -18 -7 -37 -21l-9 17c43 40 89 65 112 65c18 0 22 -20 12 -61l-35 -142c-4 -16 -3 -24 2 -24z" />
    <glyph glyph-name="U" unicode="U" horiz-adv-x="850" 
d="M567 567c75 -85 80 -213 17 -304l159 -184c23 -27 21 -66 -6 -89c-25 -23 -66 -20 -89 7l-160 184c-99 -51 -223 -27 -298 60c-91 104 -79 262 25 351c104 91 261 79 352 -25zM267 533c-168 -149 55 -403 223 -257s-55 403 -223 257z" />
    <glyph glyph-name="Udieresis" unicode="&#xdc;" 
d="M133 700h534c73 0 133 -60 133 -133v-534c0 -73 -60 -133 -133 -133h-534c-9 0 -18 1 -27 3c-60 12 -106 66 -106 130v534c0 73 60 133 133 133zM100 599v-39h189c-11 -28 -29 -57 -53 -86c-11 14 -22 31 -33 50h-52c13 -31 31 -58 54 -83c-32 -28 -66 -49 -102 -63
l29 -31c34 13 69 34 104 63c31 -27 70 -51 89 -60l14 -6l30 31c-38 15 -72 36 -102 65c33 35 56 75 70 120h45v39h-122v36h-39v-36h-121zM300 -50l100 100l-100 100v-80c-75 0 -130 61 -130 130h80l-100 100l-100 -100h71c4 -103 76 -175 179 -180v-70zM673 50h50l-98 250
h-50l-98 -250h50l20 50h106zM562 139l38 97l38 -97h-76z" />
    <glyph glyph-name="Udieresis" unicode="&#xfc;" 
d="M133 700h534c73 0 133 -60 133 -133v-534c0 -73 -60 -133 -133 -133h-534c-9 0 -18 1 -27 3c-60 12 -106 66 -106 130v534c0 73 60 133 133 133zM100 599v-39h189c-11 -28 -29 -57 -53 -86c-11 14 -22 31 -33 50h-52c13 -31 31 -58 54 -83c-32 -28 -66 -49 -102 -63
l29 -31c34 13 69 34 104 63c31 -27 70 -51 89 -60l14 -6l30 31c-38 15 -72 36 -102 65c33 35 56 75 70 120h45v39h-122v36h-39v-36h-121zM300 -50l100 100l-100 100v-80c-75 0 -130 61 -130 130h80l-100 100l-100 -100h71c4 -103 76 -175 179 -180v-70zM673 50h50l-98 250
h-50l-98 -250h50l20 50h106zM562 139l38 97l38 -97h-76z" />
    <glyph glyph-name="V" unicode="V" horiz-adv-x="900" 
d="M200 700h650v-650h-100v550h-550v100zM50 -100v600h600v-600h-600z" />
    <glyph glyph-name="W" unicode="W" horiz-adv-x="900" 
d="M166 700h117c65 0 117 -52 117 -116v-117c0 -64 -52 -117 -117 -117h-117c-64 0 -116 53 -116 117v117c0 64 52 116 116 116zM616 700h117c65 0 117 -52 117 -116v-117c0 -64 -52 -117 -117 -117h-117c-64 0 -116 53 -116 117v117c0 64 52 116 116 116zM166 250h117
c65 0 117 -52 117 -116v-117c0 -64 -52 -117 -117 -117h-117c-64 0 -116 53 -116 117v117c0 64 52 116 116 116zM616 250h117c65 0 117 -52 117 -116v-117c0 -64 -52 -117 -117 -117h-117c-64 0 -116 53 -116 117v117c0 64 52 116 116 116z" />
    <glyph glyph-name="X" unicode="X" horiz-adv-x="900" 
d="M226 601l53 100l475 -478l-51 -99v-1l-73 -78h-1l-94 -56l-485 483l95 51zM850 49v-150h-148c11 43 104 137 148 150z" />
    <glyph glyph-name="Y" unicode="Y" horiz-adv-x="650" 
d="M600 400l-275 -300l-275 300h100v250h351v-250h99zM50 -100v100h550v-100h-550z" />
    <glyph glyph-name="Yacute" unicode="&#xdd;" 
d="M133 700h534c73 0 133 -60 133 -133v-534c0 -73 -60 -133 -133 -133h-534c-8 0 -17 1 -27 3c-30 6 -55 21 -75 45c-21 25 -31 53 -31 85v534c0 73 60 133 133 133zM644 -50c4 0 6 2 6 5v691l-3 4l-97 -55c-1 1 -2 3 -3 6c-2 3 -7 7 -14 14c-8 6 -17 11 -27 16
s-45 11 -106 19c-37 0 -68 -5 -93 -14s-41 -19 -47 -28l-10 -13l-94 55c-4 -3 -6 -6 -6 -9v-250c0 -72 25 -152 80 -230c27 -39 60 -75 98 -106c37 -31 143 -66 316 -105zM494 556c69 0 125 -52 125 -116c0 -65 -56 -117 -125 -117c-15 0 -32 3 -50 10
c-4 -5 -11 -22 -20 -53s-16 -49 -20 -53c-3 -3 -5 -3 -8 0c-4 4 -10 22 -19 53s-16 48 -21 53c-14 -7 -30 -10 -49 -10c-69 0 -125 52 -125 117c0 64 56 116 125 116c38 0 69 -13 93 -39c25 26 56 39 94 39zM244 440c0 -78 125 -78 125 0c0 77 -125 76 -125 0zM432 440
c0 -78 125 -78 125 0c0 76 -125 77 -125 0z" />
    <glyph glyph-name="Z" unicode="Z" horiz-adv-x="850" 
d="M500 750v-300h-150v300h150zM600 538v119c121 -64 200 -191 200 -332c0 -207 -168 -375 -375 -375s-375 168 -375 375c0 141 79 268 200 332v-119c-67 -56 -100 -127 -100 -213c0 -152 123 -275 275 -275s275 123 275 275c0 86 -33 157 -100 213z" />
    <glyph glyph-name="Zacute" unicode="&#x179;" horiz-adv-x="750" 
d="M650 600l-50 -100h-449l-51 100h201v50h149v-50h200zM151 1v449h449v-449c0 -28 -22 -50 -50 -50h-349c-28 0 -50 22 -50 50z" />
    <glyph glyph-name="Zdotaccent" unicode="&#x17b;" 
d="M153 548c136 136 358 136 495 0c136 -137 136 -359 0 -495c-137 -137 -359 -137 -495 0c-137 136 -137 358 0 495zM223 123c97 -97 257 -97 354 0s97 257 0 354s-257 97 -354 0s-97 -257 0 -354zM400 100c-111 0 -200 89 -200 200c0 55 20 103 59 142c77 77 205 77 283 0
c39 -39 58 -87 58 -142c0 -109 -91 -200 -200 -200zM330 230c93 -94 234 47 141 141c-94 93 -235 -48 -141 -141z" />
    <glyph glyph-name="agrave" unicode="&#xe0;" horiz-adv-x="850" 
d="M700 550v-600h-700v850h450zM600 50v450h-200v200h-300v-650h500zM750 551h100v-751h-700v100h600v651z" />
    <glyph glyph-name="amacron" unicode="&#x100;" horiz-adv-x="1000" 
d="M720 -139l113 139c-36 0 -173 156 -212 197l-4 3c10 13 26 34 47 64c56 83 84 156 84 219c0 99 -34 173 -103 221c-43 29 -91 44 -146 44h-1c-55 0 -103 -15 -146 -44c-69 -48 -103 -122 -103 -221c0 -63 28 -136 84 -219c21 -30 37 -51 47 -64l-3 -3
c-40 -41 -177 -197 -213 -197l113 -139l13 11c37 31 134 117 209 194c41 -43 89 -89 125 -121c28 -26 67 -59 82 -73zM499 569c19 0 34 -4 45 -12c7 -5 12 -11 16 -19c7 -15 10 -33 10 -55c0 -27 -18 -66 -53 -118l-9 -13c-4 -6 -7 -10 -9 -13c-8 10 -14 19 -19 26
c-35 53 -53 93 -53 118c0 22 3 40 10 55c3 7 9 13 16 19c13 8 28 12 46 12z" />
    <glyph glyph-name="amacron" unicode="&#x101;" horiz-adv-x="1000" 
d="M720 -139l113 139c-36 0 -173 156 -212 197l-4 3c10 13 26 34 47 64c56 83 84 156 84 219c0 99 -34 173 -103 221c-43 29 -91 44 -146 44h-1c-55 0 -103 -15 -146 -44c-69 -48 -103 -122 -103 -221c0 -63 28 -136 84 -219c21 -30 37 -51 47 -64l-3 -3
c-40 -41 -177 -197 -213 -197l113 -139l13 11c37 31 134 117 209 194c41 -43 89 -89 125 -121c28 -26 67 -59 82 -73zM499 569c19 0 34 -4 45 -12c7 -5 12 -11 16 -19c7 -15 10 -33 10 -55c0 -27 -18 -66 -53 -118l-9 -13c-4 -6 -7 -10 -9 -13c-8 10 -14 19 -19 26
c-35 53 -53 93 -53 118c0 22 3 40 10 55c3 7 9 13 16 19c13 8 28 12 46 12z" />
    <glyph glyph-name="b" unicode="b" 
d="M500 750l250 -250v-600h-700v850h450zM650 0v450h-200v200h-300v-650h500z" />
    <glyph glyph-name="uni0298" unicode="&#x298;" 
d="M437 775c-20 0 -37 17 -37 38c0 20 17 37 37 37c21 0 38 -17 38 -37c0 -21 -17 -38 -38 -38zM312 775c-7 0 -12 6 -12 13c0 8 4 12 12 12c9 0 13 -4 13 -12c0 -9 -4 -13 -13 -13zM400 725c0 -33 -50 -33 -50 0s50 33 50 0zM450 550v-60c116 -33 200 -141 200 -265
c0 -152 -123 -275 -275 -275s-275 123 -275 275c0 124 84 232 200 265v60h-10c-8 0 -15 7 -15 15v70c0 10 5 15 15 15h170c10 0 15 -5 15 -15v-70c0 -8 -7 -15 -15 -15h-10zM375 23c109 0 199 90 199 199c0 29 -6 56 -18 82v1c-1 1 -1 1 -1 2c-9 3 -22 5 -40 5
c-41 0 -94 -9 -158 -26c-53 -15 -95 -32 -128 -49c-28 -15 -45 -27 -52 -37c12 -101 97 -177 198 -177zM312 200c50 0 50 -75 0 -75c-48 0 -49 75 0 75zM437 175c50 0 50 -75 0 -75c-48 0 -49 75 0 75z" />
    <glyph glyph-name="c" unicode="c" 
d="M498 752l252 -252v-602h-700v854h448zM499 501h227l-227 227v-227zM552 282c35 48 72 87 109 117l-55 56c-109 -100 -217 -250 -261 -373l-97 94l-54 -57l143 -131l65 19c25 84 75 176 150 275z" />
    <glyph glyph-name="ccedilla" unicode="&#xc7;" horiz-adv-x="850" 
d="M793 250h-103c-1 -5 -5 -15 -11 -32c-5 -12 -10 -21 -13 -27l72 -73c-28 -43 -63 -78 -106 -106l-72 73l-28 -13c-9 -5 -20 -9 -32 -12v-102c-25 -5 -50 -8 -75 -8c-23 0 -48 3 -75 8v102c-19 5 -47 18 -59 25l-72 -73c-43 28 -78 63 -107 106l73 73c-7 12 -20 40 -25 59
h-102c-5 25 -8 50 -8 75s3 50 8 75h102c3 12 7 23 12 32c5 11 9 20 13 27l-73 73c29 43 64 78 107 106l72 -72c3 1 8 4 14 7s10 5 13 6c17 6 27 10 32 11v103c23 5 48 7 75 7s52 -2 75 -7v-103c9 -3 20 -6 32 -11c4 -1 9 -4 16 -7l12 -6l72 72c43 -28 78 -63 106 -106
l-72 -73c4 -7 8 -16 13 -27c5 -12 8 -23 11 -32h103c5 -23 7 -48 7 -75s-2 -52 -7 -75zM337 237c116 -117 293 60 177 177c-117 116 -294 -61 -177 -177z" />
    <glyph glyph-name="ccedilla" unicode="&#xe7;" horiz-adv-x="850" 
d="M793 250h-103c-1 -5 -5 -15 -11 -32c-5 -12 -10 -21 -13 -27l72 -73c-28 -43 -63 -78 -106 -106l-72 73l-28 -13c-9 -5 -20 -9 -32 -12v-102c-25 -5 -50 -8 -75 -8c-23 0 -48 3 -75 8v102c-19 5 -47 18 -59 25l-72 -73c-43 28 -78 63 -107 106l73 73c-7 12 -20 40 -25 59
h-102c-5 25 -8 50 -8 75s3 50 8 75h102c3 12 7 23 12 32c5 11 9 20 13 27l-73 73c29 43 64 78 107 106l72 -72c3 1 8 4 14 7s10 5 13 6c17 6 27 10 32 11v103c23 5 48 7 75 7s52 -2 75 -7v-103c9 -3 20 -6 32 -11c4 -1 9 -4 16 -7l12 -6l72 72c43 -28 78 -63 106 -106
l-72 -73c4 -7 8 -16 13 -27c5 -12 8 -23 11 -32h103c5 -23 7 -48 7 -75s-2 -52 -7 -75zM337 237c116 -117 293 60 177 177c-117 116 -294 -61 -177 -177z" />
    <glyph glyph-name="d" unicode="d" horiz-adv-x="900" 
d="M507 656l329 -641c9 -11 13 -24 13 -38c0 -36 -32 -67 -67 -67h-666c-52 0 -83 55 -58 102l332 643c12 23 31 35 58 35s46 -11 59 -34zM116 -38h666c7 0 15 7 15 15c0 3 -1 6 -3 9l-3 4l-330 642c-2 3 -6 5 -13 5c-5 0 -10 -2 -13 -6l-332 -645c-5 -12 1 -24 13 -24z
M399 353v108h100v-108l-26 -193h-48zM399 10v100h100v-100h-100z" />
    <glyph glyph-name="e" unicode="e" horiz-adv-x="900" 
d="M507 655l329 -640c9 -11 13 -24 13 -39c0 -36 -31 -66 -67 -66h-666c-52 0 -83 54 -58 101l332 643c12 24 31 36 58 36s47 -12 59 -35zM499 352v108h-100v-108l26 -192h48zM499 10v100h-100v-100h100z" />
    <glyph glyph-name="eacute" unicode="&#xe9;" horiz-adv-x="1000" 
d="M501 700c95 0 159 -81 159 -150h-319c0 71 64 150 160 150zM796 301h54c63 0 64 -101 0 -101h-56c-5 -31 -16 -61 -32 -92l49 -45c19 -19 18 -50 -2 -70c-20 -19 -51 -20 -70 -1l-40 36c-57 -52 -124 -78 -200 -78s-143 26 -200 78l-48 -47c-19 -19 -50 -18 -70 2
c-19 20 -20 51 -1 70l56 55c-15 29 -26 59 -32 92h-55c-65 0 -64 101 0 101h53c5 31 15 62 30 94l-40 39c-19 19 -18 50 1 70c20 19 51 20 70 1l34 -32c19 17 30 27 33 29h335c5 -3 17 -13 35 -30l30 31c19 19 50 18 70 -2c19 -20 20 -51 1 -70l-35 -36
c15 -29 25 -60 30 -94z" />
    <glyph glyph-name="egrave" unicode="&#xc8;" 
d="M607 553c157 -121 223 -324 172 -511c-52 -30 -134 -38 -245 -24c24 73 39 134 46 184c5 40 0 87 -22 136c-11 25 -25 47 -42 68c-17 20 -70 45 -158 74c-63 3 -145 -29 -175 -52c-26 -21 -48 -66 -55 -86c-22 -55 -7 -170 82 -207c5 -3 39 -12 40 -12
c71 -12 126 25 143 52c17 30 31 90 -9 126c-21 19 -42 27 -64 23h-3c-4 -1 -8 -3 -11 -4c-6 -3 -11 -6 -15 -10c-1 0 -1 0 -1 -1s0 -1 -1 -2c34 13 50 4 64 -13l7 -7c24 -24 12 -94 -49 -94c-68 -1 -111 51 -111 95v4l1 4c3 35 20 62 51 83c1 1 4 3 8 4c0 1 1 1 2 1
c33 17 72 20 117 9c15 -5 30 -12 43 -19c27 -18 48 -43 64 -75l7 -17c9 -35 7 -68 3 -91l-4 -17l-4 -11c-2 -5 -7 -13 -14 -26s-15 -26 -24 -37s-39 -35 -90 -70c-49 -21 -91 -31 -126 -30c-42 6 -80 22 -113 49c-135 104 -161 298 -56 434c85 111 221 166 357 148
c68 -9 130 -35 185 -78z" />
    <glyph glyph-name="egrave" unicode="&#xe8;" 
d="M607 553c157 -121 223 -324 172 -511c-52 -30 -134 -38 -245 -24c24 73 39 134 46 184c5 40 0 87 -22 136c-11 25 -25 47 -42 68c-17 20 -70 45 -158 74c-63 3 -145 -29 -175 -52c-26 -21 -48 -66 -55 -86c-22 -55 -7 -170 82 -207c5 -3 39 -12 40 -12
c71 -12 126 25 143 52c17 30 31 90 -9 126c-21 19 -42 27 -64 23h-3c-4 -1 -8 -3 -11 -4c-6 -3 -11 -6 -15 -10c-1 0 -1 0 -1 -1s0 -1 -1 -2c34 13 50 4 64 -13l7 -7c24 -24 12 -94 -49 -94c-68 -1 -111 51 -111 95v4l1 4c3 35 20 62 51 83c1 1 4 3 8 4c0 1 1 1 2 1
c33 17 72 20 117 9c15 -5 30 -12 43 -19c27 -18 48 -43 64 -75l7 -17c9 -35 7 -68 3 -91l-4 -17l-4 -11c-2 -5 -7 -13 -14 -26s-15 -26 -24 -37s-39 -35 -90 -70c-49 -21 -91 -31 -126 -30c-42 6 -80 22 -113 49c-135 104 -161 298 -56 434c85 111 221 166 357 148
c68 -9 130 -35 185 -78z" />
    <glyph glyph-name="uni0207" unicode="&#x207;" 
d="M225 700c296 0 296 -450 0 -450c-63 0 -116 22 -159 66c-44 43 -66 96 -66 159s22 116 66 159c43 44 96 66 159 66zM313 386c25 25 37 54 37 89s-12 64 -37 89c-24 24 -53 36 -88 36c-34 0 -64 -12 -89 -36c-24 -25 -36 -55 -36 -89s12 -64 36 -89c25 -24 55 -36 89 -36
c35 0 64 12 88 36zM749 300c34 -34 51 -75 51 -123c0 -49 -17 -90 -51 -124c-69 -68 -180 -68 -248 0c-34 34 -51 75 -51 124c0 96 78 174 175 174c48 0 89 -17 124 -51zM136 113c25 25 54 37 89 37c34 0 63 -12 88 -37c25 -24 37 -53 37 -88s-12 -64 -37 -88
c-25 -25 -54 -37 -88 -37c-35 0 -64 12 -89 37c-24 24 -36 53 -36 88s12 64 36 88z" />
    <glyph glyph-name="uni0292" unicode="&#x1b7;" 
d="M647 547c69 -68 103 -150 103 -247s-34 -179 -103 -248c-68 -68 -150 -102 -247 -102s-179 34 -248 102c-68 69 -102 151 -102 248s34 179 102 247c69 69 151 103 248 103s179 -34 247 -103zM400 230l106 -106l70 71l-106 106l106 106l-70 71l-106 -106l-107 106l-70 -71
l106 -106l-106 -106l70 -71z" />
    <glyph glyph-name="uni0292" unicode="&#x292;" 
d="M647 547c69 -68 103 -150 103 -247s-34 -179 -103 -248c-68 -68 -150 -102 -247 -102s-179 34 -248 102c-68 69 -102 151 -102 248s34 179 102 247c69 69 151 103 248 103s179 -34 247 -103zM400 230l106 -106l70 71l-106 106l106 106l-70 71l-106 -106l-107 106l-70 -71
l106 -106l-106 -106l70 -71z" />
    <glyph glyph-name="f" unicode="f" horiz-adv-x="950" 
d="M800 150h100v-150h-100v-100h-150v100h-500v500h-100v150h100v100h150v-100h465l65 65l35 -36l-65 -64v-465zM300 500v-315l315 315h-315zM650 150v315l-314 -315h314z" />
    <glyph glyph-name="g" unicode="g" horiz-adv-x="850" 
d="M461 623c0 -46 -72 -46 -72 0c0 49 72 49 72 0zM649 400l1 -200l99 19l-49 -219h-550l-49 219l98 -19v200l136 -114l90 266l90 -266zM174 445c-17 0 -30 13 -30 30c0 16 13 30 30 30c16 0 30 -14 30 -30c0 -17 -14 -30 -30 -30zM674 445c-16 0 -30 13 -30 30
c0 16 14 30 30 30c17 0 30 -14 30 -30c0 -17 -13 -30 -30 -30zM75 300c33 0 33 -50 0 -50s-33 50 0 50zM775 300c33 0 33 -50 0 -50s-33 50 0 50z" />
    <glyph glyph-name="h" unicode="h" 
d="M650 350v-100h-200v-200h-100v200h-200v100h200v200h100v-200h200z" />
    <glyph glyph-name="i" unicode="i" 
d="M200 -50v700h-50v-700h50zM325 350l162 -175l163 175h-325z" />
    <glyph glyph-name="j" unicode="j" 
d="M150 450l275 -300l275 300h-550z" />
    <glyph glyph-name="k" unicode="k" 
d="M700 150l-275 300l-275 -300h550z" />
    <glyph glyph-name="l" unicode="l" 
d="M500 600l-300 -275l300 -275v550z" />
    <glyph glyph-name="m" unicode="m" 
d="M300 50l300 275l-300 275v-550z" />
    <glyph glyph-name="n" unicode="n" horiz-adv-x="1000" 
d="M50 700h900v-800h-900v800zM900 -50v550h-800v-550h800z" />
    <glyph glyph-name="eng" unicode="&#x14a;" 
d="M400 650c193 0 350 -157 350 -350c0 -97 -34 -179 -102 -247c-137 -137 -359 -137 -495 0c-69 68 -103 150 -103 247c0 195 155 350 350 350zM325 510v-234c0 -50 150 -51 150 -1v100h-75v25h75v25h-75v25h75v25h-75v25h75v10c0 53 -150 53 -150 0zM550 276v64
c0 5 -6 10 -11 10h-11c-5 0 -11 -5 -11 -10v-65c0 -41 -36 -86 -117 -86c-83 0 -118 45 -118 86v65c0 5 -6 10 -11 10h-11c-7 0 -10 -3 -10 -10v-65c0 -57 44 -110 125 -118v-94c0 -7 5 -13 12 -13h25c7 0 13 6 13 13v94c80 8 125 62 125 119z" />
    <glyph glyph-name="eng" unicode="&#x14b;" 
d="M400 650c193 0 350 -157 350 -350c0 -97 -34 -179 -102 -247c-137 -137 -359 -137 -495 0c-69 68 -103 150 -103 247c0 195 155 350 350 350zM325 510v-234c0 -50 150 -51 150 -1v100h-75v25h75v25h-75v25h75v25h-75v25h75v10c0 53 -150 53 -150 0zM550 276v64
c0 5 -6 10 -11 10h-11c-5 0 -11 -5 -11 -10v-65c0 -41 -36 -86 -117 -86c-83 0 -118 45 -118 86v65c0 5 -6 10 -11 10h-11c-7 0 -10 -3 -10 -10v-65c0 -57 44 -110 125 -118v-94c0 -7 5 -13 12 -13h25c7 0 13 6 13 13v94c80 8 125 62 125 119z" />
    <glyph glyph-name="o" unicode="o" horiz-adv-x="1000" 
d="M350 700h600v-550h-300v-250h-600v550h300v250zM900 200v350h-500v-100h250v-250h250zM600 -50v350h-500v-350h500z" />
    <glyph glyph-name="obreve" unicode="&#x14e;" horiz-adv-x="1200" 
d="M300 500v-150h200v-200h-200v-150l-300 250zM1150 250l-300 -250v150h-200v200h200v150z" />
    <glyph glyph-name="obreve" unicode="&#x14f;" horiz-adv-x="1200" 
d="M300 500v-150h200v-200h-200v-150l-300 250zM1150 250l-300 -250v150h-200v200h200v150z" />
    <glyph glyph-name="uni022F" unicode="&#x22e;" 
d="M676 475l124 -125h-350v350l126 -126l122 122l99 -99zM350 250v-350l-124 125l-122 -121l-99 99l121 121l-126 126h350z" />
    <glyph glyph-name="uni022F" unicode="&#x22f;" 
d="M676 475l124 -125h-350v350l126 -126l122 122l99 -99zM350 250v-350l-124 125l-122 -121l-99 99l121 121l-126 126h350z" />
    <glyph glyph-name="p" unicode="p" 
d="M754 583l-283 -282l283 -283l-71 -71l-283 283l-282 -283l-71 71l283 283l-283 282l71 71l282 -283l283 283z" />
    <glyph glyph-name="q" unicode="q" horiz-adv-x="900" 
d="M848 415l-348 -298v187c-204 3 -382 -125 -450 -316v87c0 173 92 320 228 395c68 37 142 57 222 60v182z" />
    <glyph glyph-name="r" unicode="r" 
d="M287 0l84 18c86 223 183 383 292 478l37 33l-69 71l-37 -32c-108 -95 -205 -244 -290 -447l-132 126l-72 -68z" />
    <glyph glyph-name="s" unicode="s" horiz-adv-x="805" 
d="M100 600h600v-600h-600v600zM650 50v500h-500v-500h500z" />
    <glyph glyph-name="uni0219" unicode="&#x219;" horiz-adv-x="1400" 
d="M680 779c-77 0 -78 119 0 119c79 0 79 -119 0 -119zM472 758c-55 -57 -141 29 -84 84c56 55 139 -28 84 -84zM974 758c-56 -56 -140 29 -85 84s140 -29 85 -84zM277 683c0 -78 -119 -77 -119 0c0 79 119 79 119 0zM1203 683c0 -77 -119 -78 -119 0c0 79 119 79 119 0z
M680 700c253 0 472 -164 545 -399c-73 -235 -292 -399 -545 -399c-252 0 -471 164 -544 399c73 233 292 399 544 399zM680 39c145 0 263 117 263 262s-118 262 -263 262c-144 0 -262 -117 -262 -262s118 -262 262 -262zM680 400c130 0 130 -198 0 -198s-128 198 0 198z" />
    <glyph glyph-name="longs" unicode="&#x17f;" horiz-adv-x="750" 
d="M50 600h150v-250h-150v250zM250 600h250v-250h-250v250zM50 250h351v-250h-351v250zM450 250h100v-250h-100v250zM600 250h100v-250h-100v250z" />
    <glyph glyph-name="t" unicode="t" horiz-adv-x="900" 
d="M731 703l68 -71l-37 -33c-23 -21 -43 -42 -62 -63v-536h-600v600h524c25 28 48 51 69 70zM650 50v422c-67 -96 -127 -213 -180 -351l-83 -18l-188 178l72 69l132 -126c54 128 114 237 181 326h-434v-500h500z" />
    <glyph glyph-name="u" unicode="u" horiz-adv-x="1000" 
d="M800 700h100v-800h-850v800h100v50h50v-50h150v50h50v-50h150v50h50v-50h150v50h50v-50zM850 -50v700h-50v-50h-50v50h-150v-50h-50v50h-150v-50h-50v50h-150v-50h-50v50h-50v-700h750zM350 450v50h50v-50h-50zM500 500v-50h-50v50h50zM600 500v-50h-50v50h50zM650 450
v50h50v-50h-50zM750 450v50h50v-50h-50zM150 350v50h50v-50h-50zM250 350v50h50v-50h-50zM350 350v50h50v-50h-50zM450 400h50v-50h-50v50zM600 400v-50h50v-50h50v-50h-50v-50h-50v-50h-50v50h-50v50h-50v50h50v50h50v50h50zM650 350v50h50v-50h-50zM750 350v50h50v-50h-50
zM150 250v50h50v-50h-50zM250 250v50h50v-50h-50zM350 250v50h50v-50h-50zM600 250v50h-50v-50h50zM750 250v50h50v-50h-50zM150 150v50h50v-50h-50zM250 150v50h50v-50h-50zM350 150v50h50v-50h-50zM450 150v50h50v-50h-50zM700 150h-50v50h50v-50zM750 150v50h50v-50h-50z
M150 50v50h50v-50h-50zM250 50v50h50v-50h-50zM350 50v50h50v-50h-50zM450 50v50h50v-50h-50zM550 50v50h50v-50h-50z" />
    <glyph glyph-name="ugrave" unicode="&#xd9;" horiz-adv-x="1000" 
d="M100 725h100v-250h-100v250zM450 725h100v-450h-100v450zM800 725h100v-200h-100v200zM750 475h200v-100h-200v100zM50 425h200v-100h-200v100zM800 325h100v-450h-100v450zM100 275h100v-400h-100v400zM400 225h200v-100h-200v100zM450 75h100v-200h-100v200z" />
    <glyph glyph-name="ugrave" unicode="&#xf9;" horiz-adv-x="1000" 
d="M100 725h100v-250h-100v250zM450 725h100v-450h-100v450zM800 725h100v-200h-100v200zM750 475h200v-100h-200v100zM50 425h200v-100h-200v100zM800 325h100v-450h-100v450zM100 275h100v-400h-100v400zM400 225h200v-100h-200v100zM450 75h100v-200h-100v200z" />
    <glyph glyph-name="uhungarumlaut" unicode="&#x170;" 
d="M550 600v-100h-200v100h200zM800 600v-100h-200v100h200zM300 450v-100h-300v100h300zM550 450v-100h-200v100h200zM800 450v-100h-200v100h200zM0 200v100h300v-100h-300zM350 200v100h200v-100h-200zM600 300h200v-100h-200v100zM0 50v100h300v-100h-300zM350 50v100
h200v-100h-200zM600 50v100h200v-100h-200z" />
    <glyph glyph-name="uhungarumlaut" unicode="&#x171;" 
d="M550 600v-100h-200v100h200zM800 600v-100h-200v100h200zM300 450v-100h-300v100h300zM550 450v-100h-200v100h200zM800 450v-100h-200v100h200zM0 200v100h300v-100h-300zM350 200v100h200v-100h-200zM600 300h200v-100h-200v100zM0 50v100h300v-100h-300zM350 50v100
h200v-100h-200zM600 50v100h200v-100h-200z" />
    <glyph glyph-name="uogonek" unicode="&#x172;" horiz-adv-x="900" 
d="M836 454l63 -38l-220 -366l-182 406l-131 -349l-160 214l-142 -246l-64 37l197 342l147 -195l147 391l197 -440z" />
    <glyph glyph-name="uogonek" unicode="&#x173;" horiz-adv-x="900" 
d="M836 454l63 -38l-220 -366l-182 406l-131 -349l-160 214l-142 -246l-64 37l197 342l147 -195l147 391l197 -440z" />
    <glyph glyph-name="uring" unicode="&#x16e;" horiz-adv-x="600" 
d="M50 700h200v-200h-200v200zM50 450h500v-200h-500v200zM50 200h350v-200h-350v200z" />
    <glyph glyph-name="uring" unicode="&#x16f;" horiz-adv-x="600" 
d="M50 700h200v-200h-200v200zM50 450h500v-200h-500v200zM50 200h350v-200h-350v200z" />
    <glyph glyph-name="v" unicode="v" horiz-adv-x="1200" 
d="M100 650h1000v-50h-1000v50zM100 500h300v-150h-300v150zM450 500h300v-250h-300v250zM800 500h300v-150h-300v150zM100 300h300v-150h-300v150zM800 300h300v-150h-300v150zM450 200h300v-250h-300v250zM100 100h300v-150h-300v150zM800 100h300v-150h-300v150z" />
    <glyph glyph-name="w" unicode="w" horiz-adv-x="1200" 
d="M100 600h1000v-50h-1000v50zM100 400v50h1000v-50h-1000zM100 250v50h1000v-50h-1000zM100 100v50h1000v-50h-1000zM100 -50v50h1000v-50h-1000z" />
    <glyph glyph-name="wcircumflex" unicode="&#x174;" 
d="M300 550h200v-500h-200v500zM550 400h200v-350h-200v350zM50 250h200v-200h-200v200z" />
    <glyph glyph-name="wcircumflex" unicode="&#x175;" 
d="M300 550h200v-500h-200v500zM550 400h200v-350h-200v350zM50 250h200v-200h-200v200z" />
    <glyph glyph-name="x" unicode="x" horiz-adv-x="1200" 
d="M100 350v250h250v-250h-250zM450 600h650v-50h-650v50zM150 550v-150h150v150h-150zM450 450v50h650v-50h-650zM450 350v50h650v-50h-650zM100 -50v250h250v-250h-250zM450 150v50h650v-50h-650zM150 150v-150h150v150h-150zM450 50v50h650v-50h-650zM450 -50v50h650v-50
h-650z" />
    <glyph glyph-name="y" unicode="y" horiz-adv-x="1200" 
d="M100 600h1000v-250h-1000v250zM1047 400v150h-895v-150h895zM100 250v50h1000v-50h-1000zM100 150v50h1000v-50h-1000zM100 51v50h1000v-50h-1000zM100 -50v50h1000v-50h-1000z" />
    <glyph glyph-name="yacute" unicode="&#xfd;" 
d="M400 700l300 -100l-300 -100l-300 100zM50 71v449l300 -99v-451zM450 420l300 100v-449l-300 -101v450z" />
    <glyph glyph-name="ycircumflex" unicode="&#x176;" horiz-adv-x="850" 
d="M680 300h170v250l-150 -100l-200 250l-201 -250h-99l-200 100v-400l200 100h114l186 250zM0 0h850v200h-200l-150 150l-150 -200h-150l-200 -100v-50z" />
    <glyph glyph-name="ycircumflex" unicode="&#x177;" horiz-adv-x="850" 
d="M680 300h170v250l-150 -100l-200 250l-201 -250h-99l-200 100v-400l200 100h114l186 250zM0 0h850v200h-200l-150 150l-150 -200h-150l-200 -100v-50z" />
    <glyph glyph-name="z" unicode="z" horiz-adv-x="1200" 
d="M100 300v300h300v-300h-300zM450 300v300h300v-300h-300zM800 300v300h300v-300h-300zM150 550v-200h200v200h-200zM500 550v-200h200v200h-200zM850 550v-200h200v200h-200zM100 -50v300h300v-300h-300zM450 -50v300h300v-300h-300zM800 -50v300h300v-300h-300zM150 200
v-200h200v200h-200zM500 200v-200h200v200h-200zM850 200v-200h200v200h-200z" />
    <glyph glyph-name="zacute" unicode="&#x17a;" 
d="M400 120c60 0 114 30 149 78l160 -62c-60 -112 -181 -185 -309 -185c-193 0 -350 157 -350 350c0 95 33 176 99 244c56 58 123 93 201 104v-173c-76 -23 -130 -94 -130 -175c0 -100 81 -181 180 -181zM652 545c65 -69 98 -150 98 -244c0 -26 -2 -50 -7 -71l-162 62v9
c0 81 -55 153 -131 174v174c79 -11 146 -46 202 -104z" />
    <glyph glyph-name="zcaron" unicode="&#x17d;" horiz-adv-x="600" 
d="M350 650h250v-100h-250v100zM350 500h250v-100h-250v100zM0 450h250v-250h-250v250zM350 350h250v-350h-250v350zM0 150h250v-150h-250v150z" />
    <glyph glyph-name="zcaron" unicode="&#x17e;" horiz-adv-x="600" 
d="M350 650h250v-100h-250v100zM350 500h250v-100h-250v100zM0 450h250v-250h-250v250zM350 350h250v-350h-250v350zM0 150h250v-150h-250v150z" />
    <glyph glyph-name="zdotaccent" unicode="&#x17c;" horiz-adv-x="900" 
d="M761 344h17c67 0 122 -54 122 -122c0 -67 -55 -122 -122 -122h-656c-67 0 -122 55 -122 122c0 68 55 122 122 122h22v6c0 83 68 151 151 151c17 0 32 -3 47 -8c43 63 113 100 190 100c127 0 230 -102 230 -229c0 -9 0 -15 -1 -20z" />
    <glyph glyph-name="uni03A9" unicode="&#x3a9;" 
d="M800 300h-150v-300h-200v200h-150v-200h-150v300h-150l400 400z" />
    <glyph glyph-name="uni03A9" unicode="&#x3c9;" 
d="M800 300h-150v-300h-200v200h-150v-200h-150v300h-150l400 400z" />
    <glyph glyph-name="uni037B" unicode="&#x37b;" 
d="M133 700h534c73 0 133 -60 133 -133v-534c0 -73 -60 -133 -133 -133h-534c-9 0 -18 1 -27 3c-60 12 -106 66 -106 130v534c0 73 60 133 133 133zM536 50h114c0 181 -96 344 -249 433c-77 45 -160 67 -251 67v-114c213 0 386 -173 386 -386zM352 49h105
c0 169 -138 308 -307 308h-1v-105h1c112 0 202 -91 202 -203zM149 49h116c0 64 -52 116 -115 116h-1v-116z" />
    <glyph glyph-name="uni037B" unicode="&#x3fd;" 
d="M133 700h534c73 0 133 -60 133 -133v-534c0 -73 -60 -133 -133 -133h-534c-9 0 -18 1 -27 3c-60 12 -106 66 -106 130v534c0 73 60 133 133 133zM536 50h114c0 181 -96 344 -249 433c-77 45 -160 67 -251 67v-114c213 0 386 -173 386 -386zM352 49h105
c0 169 -138 308 -307 308h-1v-105h1c112 0 202 -91 202 -203zM149 49h116c0 64 -52 116 -115 116h-1v-116z" />
    <glyph glyph-name="one" unicode="1" 
d="M133 700h534c73 0 133 -60 133 -133v-534c0 -73 -60 -133 -133 -133h-534c-9 0 -18 1 -27 3c-60 12 -106 66 -106 130v534c0 73 60 133 133 133zM447 110c0 -60 49 -108 109 -108c30 0 56 11 77 32c41 41 41 111 0 153c-21 21 -47 31 -77 31c-13 0 -24 -2 -32 -5l-74 97
l136 179c15 27 8 63 -5 91l-10 22l-172 -225l-167 220c-1 -2 -3 -5 -4 -8l-9 -21c-4 -10 -7 -19 -9 -28s0 -28 6 -56l133 -174l-73 -96c-9 3 -18 4 -29 4c-144 0 -144 -216 0 -216c59 0 108 48 108 108c0 19 -5 37 -15 55l59 78l62 -81c-9 -15 -14 -33 -14 -52zM375 308
c0 36 53 35 53 0s-53 -33 -53 0zM211 146c48 48 120 -24 72 -72s-120 24 -72 72zM520 146c48 48 120 -24 72 -72s-120 24 -72 72z" />
    <glyph glyph-name="two" unicode="2" 
d="M500 700v-301h300v-366c0 -73 -60 -133 -133 -133h-534c-45 0 -81 19 -108 56c64 87 164 138 275 137v-135l251 215l-251 214v-131c-132 -4 -252 -83 -300 -203v514c0 73 60 133 133 133h367zM550 700l250 -250h-250v250z" />
    <glyph glyph-name="three" unicode="3" 
d="M50 300c0 193 157 350 350 350c97 0 179 -34 248 -102c136 -137 136 -359 0 -495c-69 -69 -151 -103 -248 -103c-195 0 -350 155 -350 350zM449 250h150v100h-150v150h-100v-150h-150v-100h150v-150h100v150z" />
    <glyph glyph-name="four" unicode="4" 
d="M150 700h500v-750l-250 200l-250 -200v750z" />
    <glyph glyph-name="five" unicode="5" 
d="M-1 499v101h100v-101h-100zM199 600h600v-100h-600v100zM199 250v100h600v-100h-600zM-1 250v99h100v-99h-100zM-1 0v100h100v-100h-100zM199 0v100h600v-100h-600z" />
    <glyph glyph-name="six" unicode="6" 
d="M692 552l-242 -352v-250l-100 50v200l-242 351c-3 3 -5 7 -6 10s-2 5 -2 9c0 51 169 80 300 80s300 -29 300 -80c0 -6 -3 -12 -8 -18z" />
    <glyph glyph-name="seven" unicode="7" 
d="M100 650h1c235 0 446 -124 562 -323c58 -100 87 -209 87 -327h-150c0 181 -95 345 -248 434c-77 44 -160 66 -251 66h-1v150zM100 400h1c220 0 398 -180 399 -400h-135c0 145 -116 262 -264 262h-1v138zM100 150h1c84 0 149 -67 149 -150h-150v150z" />
    <glyph glyph-name="eight" unicode="8" 
d="M403 800l-102 -300h-300l234 -196l-91 -303l259 181l260 -181l-92 303l230 196h-300z" />
    <glyph glyph-name="nine" unicode="9" 
d="M50 251l400 399h300v-300l-400 -400zM562 468c11 -12 25 -18 42 -18s31 6 43 18c11 11 17 25 17 42s-6 31 -17 43c-24 23 -62 24 -85 0c-12 -12 -18 -26 -18 -43s6 -31 18 -42z" />
    <glyph glyph-name="onehalf" unicode="&#xbd;" horiz-adv-x="850" 
d="M425 700c208 0 375 -168 375 -375s-167 -375 -375 -375c-207 0 -375 168 -375 375s168 375 375 375zM425 50c152 0 275 123 275 275s-123 275 -275 275c-151 0 -275 -123 -275 -275s124 -275 275 -275z" />
    <glyph glyph-name="onequarter" unicode="&#xbc;" horiz-adv-x="850" 
d="M840 706l-37 -33c-29 -25 -61 -60 -94 -103c61 -70 91 -152 91 -245c0 -207 -168 -375 -375 -375c-103 0 -192 37 -265 110c-146 146 -146 384 0 530c73 73 162 110 265 110c77 0 146 -21 209 -64c34 44 67 80 100 108l37 33zM700 325c0 59 -17 111 -50 158
c-53 -88 -100 -184 -139 -288l-84 -18l-187 178l72 69l132 -126c40 95 84 181 133 256c-47 31 -97 46 -152 46c-152 0 -275 -123 -275 -275c0 -76 27 -141 81 -194c106 -107 282 -107 389 0c53 53 80 118 80 194z" />
    <glyph glyph-name="threequarters" unicode="&#xbe;" 
d="M150 700h500v-750l-250 200l-250 -200v750zM550 175v425h-300v-425l150 125z" />
    <glyph glyph-name="period" unicode="." 
d="M133 700h534c73 0 133 -60 133 -133v-534c0 -73 -60 -133 -133 -133h-534c-9 0 -18 1 -27 3c-60 12 -106 66 -106 130v534c0 73 60 133 133 133zM533 43c46 51 69 110 69 177c0 13 0 23 -1 30h-63c1 -13 2 -24 2 -31c0 -36 -8 -69 -25 -98c-18 -31 -41 -55 -68 -70
c-27 -17 -58 -25 -93 -25h-1c20 15 52 50 85 115c17 33 31 68 42 105s6 127 -13 271c-35 89 -52 135 -53 137c17 -87 21 -104 32 -182c5 -39 8 -70 7 -92c-1 -37 -6 -99 -20 -149c5 15 -1 -7 -9 -26c-11 -26 -48 -84 -111 -175c-18 4 -36 11 -53 21c-27 15 -50 39 -68 70
c-17 29 -25 62 -25 98c0 55 18 102 55 139c37 38 79 57 128 57v61c-71 0 -131 -27 -179 -81c-44 -49 -66 -107 -66 -175c0 -67 23 -126 69 -177c47 -51 107 -76 180 -76s132 25 179 76zM704 427l5 13c21 76 11 136 -9 171l-14 26c-17 -37 -50 -64 -70 -69l-14 -5
c-32 -8 -58 -22 -66 -29l-7 -6c-32 -32 -33 -78 -21 -102l9 -18c69 16 127 65 146 98l14 25c-3 -39 -62 -92 -109 -120l-35 -21c39 -39 78 -46 119 -23c23 13 44 43 52 60z" />
    <glyph glyph-name="comma" unicode="," 
d="M650 122l-72 -72l-178 178l-178 -178l-71 72l177 178l-178 178l72 72l178 -179l178 179l72 -73l-178 -177z" />
    <glyph glyph-name="colon" unicode=":" 
d="M133 700h534c73 0 133 -60 133 -133v-534c0 -73 -60 -133 -133 -133h-534c-9 0 -18 1 -27 3c-60 12 -106 66 -106 130v534c0 73 60 133 133 133zM600 349v99h-150v152h-86c-3 -31 -10 -56 -21 -76c-10 -21 -23 -38 -40 -52c-7 -6 -25 -14 -53 -23v-100h50v-190
c0 -20 6 -46 17 -78c6 -15 16 -28 31 -41s33 -23 54 -30c20 -7 44 -10 73 -10c26 0 48 2 67 7c14 3 33 11 58 22v91c-22 -15 -48 -22 -79 -22c-17 0 -32 4 -45 12c-11 6 -18 14 -21 23c-3 11 -5 34 -5 67v149h150z" />
    <glyph glyph-name="semicolon" unicode=";" 
d="M133 700h534c73 0 133 -60 133 -133v-534c0 -73 -60 -133 -133 -133h-534c-9 0 -18 1 -27 3c-60 12 -106 66 -106 130v534c0 73 60 133 133 133zM129 455c-6 -4 -6 -8 0 -13c2 -1 5 -3 9 -4c133 -62 213 -100 242 -113c15 -7 29 -7 44 0c44 21 195 86 247 116
c5 1 7 4 7 8c0 1 -2 3 -7 8l-57 27l-118 55c-41 19 -65 30 -71 33c-15 7 -30 7 -45 1c-3 -2 -215 -82 -251 -118zM670 296c5 3 8 6 8 9c-1 3 -4 6 -9 9c-19 9 -33 16 -43 20c-13 6 -26 6 -39 0c-37 -17 -92 -42 -165 -77c-13 -6 -27 -6 -41 0c-61 29 -115 55 -164 77
c-11 5 -21 6 -30 3c-12 -3 -31 -12 -57 -25c-3 -1 -4 -3 -4 -6s1 -6 4 -8c1 -1 2 -1 5 -2c2 -1 3 -2 4 -3c53 -24 188 -87 241 -112c15 -7 28 -7 41 -1c55 25 138 64 249 116zM667 147c7 3 11 6 11 9s-4 6 -11 10c-9 5 -34 17 -41 20c-13 6 -27 6 -41 0l-85 -39
c-37 -17 -61 -29 -73 -35c-18 -9 -36 -9 -53 0c-20 9 -48 23 -85 40s-61 28 -73 34c-13 6 -26 6 -39 0c-10 -4 -24 -11 -43 -20c-5 -3 -8 -6 -8 -9c0 -4 3 -7 8 -10c37 -17 184 -86 247 -115c11 -7 23 -7 36 -2l33 15l109 51c48 23 84 40 108 51z" />
    <glyph glyph-name="exclam" unicode="!" 
d="M100 650h600c28 0 50 -22 50 -50v-600c0 -27 -22 -50 -50 -50h-600c-27 0 -50 23 -50 50v600c0 28 23 50 50 50zM450 425v125h-100v-125l27 -225h47zM450 50v100h-100v-100h100z" />
    <glyph glyph-name="exclamdown" unicode="&#xa1;" 
d="M134 700h533c73 0 133 -60 133 -133v-534c0 -73 -60 -133 -133 -133h-533c-9 0 -18 1 -27 3c-61 12 -107 66 -107 130v534c0 73 61 133 134 133zM716 257c25 17 38 40 38 70c0 47 -38 85 -85 85c-21 0 -38 -6 -53 -19c-55 34 -119 53 -192 57l42 121l107 -26
c3 -37 33 -67 70 -67c93 0 94 141 0 141c-27 0 -52 -16 -63 -40l-136 32l-57 -161c-77 -1 -145 -20 -203 -56c-15 12 -32 18 -53 18c-47 0 -85 -38 -85 -85c0 -29 12 -52 36 -69c-1 -5 -1 -13 -1 -23c0 -119 143 -215 318 -215c176 0 319 96 319 215c0 5 -1 13 -2 22z
M669 524c-34 -34 -85 17 -51 51c33 33 84 -18 51 -51zM80 327c0 28 23 51 51 51c7 0 15 -2 23 -5c-29 -23 -49 -50 -61 -79c-9 10 -13 21 -13 33zM669 378c28 0 51 -23 51 -51c0 -13 -5 -25 -14 -34c-11 29 -32 56 -61 79c8 4 16 6 24 6zM246 273c0 71 108 71 108 0
c0 -70 -108 -72 -108 0zM452 273c0 71 108 71 108 0s-108 -71 -108 0zM507 165c5 0 9 -2 12 -5c9 -9 9 -17 0 -24c-11 -16 -68 -39 -120 -39c-35 0 -64 6 -89 19c-11 5 -21 12 -29 20c-3 3 -4 8 -4 13s2 8 6 11c3 3 7 5 11 5c5 0 9 -2 13 -6c0 -3 7 -8 21 -14
c19 -9 42 -14 71 -14c42 0 84 16 96 28c3 4 7 6 12 6z" />
    <glyph glyph-name="question" unicode="?" 
d="M761 661c27 -26 41 -57 42 -93v-534c-1 -37 -15 -69 -42 -95c-26 -26 -57 -39 -94 -39h-534c-9 0 -18 1 -27 3c-29 6 -54 21 -76 46c-20 24 -30 52 -30 84v534c0 73 60 133 133 133h534c35 0 67 -13 94 -39zM616 141c18 76 15 142 -8 197c-24 57 -63 88 -117 93
c-53 5 -96 -7 -131 -38l-8 -4v111c1 41 0 70 -5 87c-11 44 -43 69 -87 66c-43 -3 -80 -35 -87 -76c-3 -18 1 -30 10 -36c10 -7 22 -5 36 6c9 9 4 14 19 12c5 -3 8 -13 8 -28c3 -83 4 -207 3 -374c0 -111 44 -170 141 -191c36 -7 94 3 133 36c49 33 86 103 93 139zM527 240
v-22c1 -19 -2 -40 -7 -62c-19 -75 -79 -105 -142 -73c-17 9 -26 22 -28 39c-10 70 3 125 40 165c12 13 26 22 43 27c53 17 90 -13 94 -74z" />
    <glyph glyph-name="questiondown" unicode="&#xbf;" 
d="M250 700v-250h-250zM300 700h367c73 0 133 -60 133 -133v-534c0 -9 -1 -18 -3 -27c-12 -60 -66 -106 -130 -106h-534c-73 0 -133 60 -133 133v366h300v301zM551 100v250h-50v-100h-100v-150h150zM701 300v50h-100v-350h50v200h24v50h-24v50h50zM351 100v150h-150v-250h50
v100h100zM301 200v-50h-50v50h50zM451 150v50h50v-50h-50zM151 100v50h-50v-50h50z" />
    <glyph glyph-name="periodcentered" unicode="&#xb7;" 
d="M133 700h534c73 0 133 -60 133 -133v-534c0 -73 -60 -133 -133 -133h-534c-9 0 -18 1 -27 3c-60 12 -106 66 -106 130v534c0 73 60 133 133 133zM561 49l114 328c17 42 25 82 25 119c0 9 -1 21 -2 34c-6 27 -25 79 -67 86h-5c-31 0 -55 -27 -55 -59c0 -17 11 -43 32 -78
c19 -31 28 -62 28 -91c0 -18 -9 -54 -26 -107l-33 -111l-119 357l37 3c17 1 17 28 -2 27c-35 -3 -65 -4 -88 -4l-87 4c-7 0 -13 -4 -14 -9c-1 -3 -1 -5 0 -8c0 -3 4 -6 12 -10l34 -3l52 -142l-73 -217l-120 358v1l38 3c17 2 16 27 -2 27c-36 -3 -66 -4 -89 -4l-87 4
c-17 0 -20 -27 -2 -27l35 -3l174 -478h41l101 293l107 -293h41z" />
    <glyph glyph-name="asterisk" unicode="*" 
d="M133 700h534c73 0 133 -61 133 -134v-533c0 -73 -60 -133 -133 -133h-534c-7 0 -15 1 -26 2c-61 13 -107 67 -107 131v533c0 73 60 134 133 134zM664 413v17c25 19 47 41 66 68c-25 -11 -51 -17 -76 -20c29 17 48 41 58 73c-27 -15 -55 -26 -84 -32c-26 27 -58 41 -96 41
c-72 0 -131 -59 -131 -131c0 -11 1 -21 3 -30c-108 5 -204 56 -271 137c-12 -19 -18 -41 -18 -66c0 -47 19 -83 58 -110c-21 1 -40 6 -59 17v-2c0 -64 45 -117 105 -129c-10 -3 -21 -4 -34 -4c-11 0 -20 1 -25 2c17 -53 66 -91 123 -92c-48 -37 -103 -56 -164 -56
c-7 0 -18 1 -31 2c61 -39 129 -59 202 -59c116 0 218 50 279 122c60 72 95 163 95 252z" />
    <glyph glyph-name="uni2045" unicode="&#x2045;" 
d="M683 650l120 -225l-400 -425l-400 425l120 225h560zM185 600l70 -136l97 136h-167zM453 600l97 -136l70 136h-167zM307 450h192l-96 134zM206 450l-65 127l-68 -127h133zM600 450h133l-68 127zM233 400h-138l240 -255l-89 221zM519 400h-232l116 -289zM559 366l-89 -221
l240 255h-137z" />
    <glyph glyph-name="uni2046" unicode="&#x2046;" horiz-adv-x="1000" 
d="M220 650h560l120 -226l-400 -424l-400 424zM366 461l88 136h-152zM634 461l64 136h-152zM500 581l-86 -131h172zM262 574l-60 -124h118zM738 574l-58 -124h118zM251 400l249 -252l253 252h-502z" />
    <glyph glyph-name="uni2038" unicode="&#x2038;" 
d="M290 610c161 0 291 -95 291 -214s-130 -214 -291 -214c-25 0 -46 2 -63 5c-36 -36 -81 -47 -135 -32c25 23 40 43 44 59c-84 39 -136 106 -136 182c0 119 130 214 290 214zM798 266c0 -63 -44 -119 -113 -151c2 -13 14 -29 36 -50c-45 -12 -82 -3 -112 27
c-15 -3 -33 -4 -53 -4c-67 0 -125 18 -172 53c145 28 249 125 249 238c0 19 -3 39 -9 58c101 -23 174 -91 174 -171z" />
    <glyph glyph-name="uni203D" unicode="&#x203d;" 
d="M134 700h533c73 0 133 -60 133 -133v-534c0 -73 -60 -133 -133 -133h-379c15 27 25 51 31 73l32 122c16 -29 61 -55 108 -55c143 0 241 128 241 305c0 137 -118 255 -282 255c-101 0 -188 -37 -239 -92s-79 -121 -79 -186c0 -80 31 -146 91 -170c11 -5 19 -1 22 11l9 36
c3 9 1 17 -6 25c-20 23 -30 52 -30 87c0 116 89 213 220 213c116 0 185 -70 185 -170c0 -132 -58 -237 -141 -237c-48 0 -82 39 -71 86c12 45 40 123 40 158c0 39 -21 66 -60 66c-48 0 -86 -50 -86 -115c0 -25 6 -51 11 -62l3 -8c-33 -138 -52 -219 -57 -243
c-7 -27 -9 -60 -8 -99h-88c-10 0 -19 1 -27 3c-61 12 -107 66 -107 130v534c0 73 61 133 134 133z" />
    <glyph glyph-name="numbersign" unicode="#" 
d="M574 152c47 -97 131 -141 224 -140c-11 -64 -66 -112 -131 -112h-534c-9 0 -18 1 -27 3c-60 12 -106 66 -106 130v534c0 73 60 133 133 133h534c73 0 133 -60 133 -133v-491c-44 7 -81 32 -110 77c-6 9 -27 45 -62 108c-3 5 -5 9 -5 12c3 20 51 62 72 61c20 0 31 8 32 23
c3 25 -5 39 -24 43c-11 3 -26 5 -44 5c-21 0 -41 -13 -61 -38l-57 -75c-3 9 -3 22 -2 37l24 183c3 18 -3 28 -19 31c-63 9 -78 -2 -85 -57c-4 -24 -11 -83 -14 -104c-2 -15 -6 -48 -13 -99s-12 -91 -15 -118c-7 -51 8 -66 56 -62c9 0 39 14 40 27c3 26 8 61 14 104
c13 -17 28 -45 47 -82zM165 102c139 -17 232 79 211 216c-8 53 -39 81 -93 83c-34 1 -61 -10 -80 -33v22c8 55 14 96 17 123c0 11 -2 18 -7 22c-37 27 -90 4 -95 -41c-17 -115 -30 -219 -41 -310c-5 -41 14 -67 56 -78c8 -1 19 -3 32 -4zM235 334c22 1 36 -10 43 -33
c8 -32 4 -64 -12 -95c-11 -21 -29 -34 -53 -38c-31 -5 -41 4 -36 35c3 21 7 52 14 93c3 25 18 38 44 38z" />
    <glyph glyph-name="slash" unicode="/" 
d="M133 700h534c73 0 133 -60 133 -133v-534c0 -73 -60 -133 -133 -133h-534c-9 0 -18 1 -27 3c-60 12 -106 66 -106 130v534c0 73 60 133 133 133zM561 229l6 73v1c0 31 13 54 40 69c-1 1 -1 3 -1 5c-16 99 -102 172 -203 172h-3c-101 0 -187 -73 -203 -172
c-1 -1 -1 -3 -1 -5c27 -15 40 -38 40 -69v-1l6 -73c53 29 106 44 159 44c52 0 105 -15 160 -44zM680 186c43 3 76 37 76 80c0 44 -36 80 -80 80c-45 0 -81 -36 -81 -80v-1l-18 -216h74v28c0 8 10 44 29 109zM151 49h74l-18 216v1c0 105 -160 105 -160 0c0 -43 32 -77 75 -80
c19 -65 29 -101 29 -109v-28zM552 99l7 89c-1 0 -4 2 -5 3c-47 29 -98 43 -153 43s-106 -14 -153 -43c-1 -1 -2 -2 -4 -3h-1l8 -89h301z" />
    <glyph glyph-name="backslash" unicode="\" 
d="M133 700h534c73 0 133 -60 133 -133v-534c0 -73 -60 -133 -133 -133h-534c-9 0 -18 1 -26 3c-61 12 -107 66 -107 130v534c0 73 60 133 133 133zM658 250l17 100h-100v22v22c0 11 -1 22 7 42c7 7 14 12 29 13c7 1 13 1 17 2c3 0 17 0 41 -1v100c-16 0 -89 -1 -99 -2
c-35 -5 -57 -5 -89 -31c-13 -13 -21 -30 -25 -55c-2 -13 -3 -23 -3 -32c-1 -9 -2 -35 -3 -80h-50v-100h50v-300h125v300h83z" />
    <glyph glyph-name="parenleft" unicode="(" 
d="M773 647l-373 -374l-373 374c27 35 62 53 106 53h534c44 0 79 -18 106 -53zM400 160l400 400v-527c0 -73 -60 -133 -133 -133h-534c-9 0 -18 1 -27 3c-60 12 -106 66 -106 130v527z" />
    <glyph glyph-name="parenright" unicode=")" 
d="M133 700h533c73 0 134 -60 134 -133v-534c0 -73 -61 -133 -134 -133h-533c-9 0 -18 1 -27 3c-61 12 -106 66 -106 130v534c0 73 60 133 133 133zM464 551c0 83 -128 81 -128 0c0 -35 31 -66 64 -66c35 0 64 30 64 66zM465 310l168 169c47 47 -16 110 -63 63l-170 -170
l-171 170c-21 21 -49 23 -66 4c-19 -19 -18 -46 3 -67l169 -169l15 -11c-1 -3 -1 -6 -1 -7v-241c0 -33 20 -56 51 -56c29 0 50 23 50 56v248c7 5 12 8 15 11z" />
    <glyph glyph-name="braceleft" unicode="{" 
d="M133 700h534c73 0 133 -60 133 -133v-534c0 -73 -60 -133 -133 -133h-534c-9 0 -18 1 -27 3c-60 12 -106 66 -106 130v534c0 73 60 133 133 133zM700 300v250h-600v-250c0 -165 135 -300 300 -300s300 135 300 300zM368 164l-160 160c-9 9 -13 20 -13 32s4 23 13 32
s20 13 33 13c12 0 22 -4 31 -13l128 -128l128 128c9 9 20 13 32 13s23 -4 32 -13s13 -20 13 -32s-4 -23 -13 -32l-160 -160c-9 -9 -19 -13 -32 -13s-23 4 -32 13z" />
    <glyph glyph-name="braceright" unicode="}" 
d="M133 700h534c73 0 133 -60 133 -133v-534c0 -73 -60 -133 -133 -133h-534c-9 0 -18 1 -27 3c-60 12 -106 66 -106 130v534c0 73 60 133 133 133zM500 507v93h-150v-77zM500 98v355l-150 34v-343c0 -29 -22 -48 -65 -57l52 -119c7 0 46 8 63 14c61 23 75 39 100 116z" />
    <glyph glyph-name="bracketleft" unicode="[" 
d="M133 700h533c73 0 134 -60 134 -133v-534c0 -73 -61 -133 -134 -133h-533c-9 0 -18 1 -27 3c-61 12 -106 66 -106 130v534c0 73 60 133 133 133zM199 464c39 0 64 25 64 58c-1 35 -24 59 -63 59c-37 0 -63 -24 -63 -59c0 -33 25 -58 62 -58zM650 50v205
c0 99 -59 146 -139 146c-52 0 -89 -17 -111 -50v49h-100v-350h100v200c0 13 1 22 3 27c8 20 41 41 72 41c41 0 75 -32 75 -76v-192h100zM250 50v350h-100v-350h100z" />
    <glyph glyph-name="bracketright" unicode="]" 
d="M133 700h534c73 0 133 -60 133 -133v-534c0 -73 -60 -133 -133 -133h-534c-9 0 -18 1 -27 3c-60 12 -106 66 -106 130v534c0 73 60 133 133 133zM600 400v150h-450v-450h151v150h149v150h150z" />
    <glyph glyph-name="uni2010" unicode="&#x2010;" horiz-adv-x="1200" 
d="M50 550v150h150v-150h-150zM350 700h800v-150h-800v150zM50 250v150h150v-150h-150zM350 250v150h800v-150h-800zM50 -50v150h150v-150h-150zM350 -50v150h800v-150h-800z" />
    <glyph glyph-name="underscore" unicode="_" 
d="M133 700h534c73 0 133 -60 133 -133v-534c0 -73 -60 -133 -133 -133h-534c-9 0 -18 1 -27 3c-60 12 -106 66 -106 130v534c0 73 60 133 133 133zM490 546l1 1c13 48 -54 69 -70 24c0 -1 0 -1 -1 -2v-1l-118 -310h-1l-125 315l-2 5c-9 19 -30 27 -49 20
c-20 -8 -30 -29 -23 -49l159 -389l-9 -20c-19 -49 -37 -72 -81 -72h-7h-10l-5 1c-18 0 -29 -8 -34 -25s6 -36 23 -41c13 -2 26 -3 37 -3c81 0 113 38 146 125c106 265 161 403 166 414c1 1 3 6 3 7zM642 520l-4 -2c-40 -25 -141 -97 -142 -117c0 -2 1 -4 4 -7
c3 -2 6 -3 11 -3c28 0 106 36 163 68c15 11 19 31 8 46c-7 11 -17 16 -30 16c-4 0 -7 0 -10 -1zM724 290h1c19 3 30 20 29 37c-1 18 -11 29 -28 32h-4c-32 0 -169 -17 -180 -34c-2 -2 -2 -5 -1 -8c9 -18 70 -27 183 -27zM682 141c11 15 7 35 -8 47c-81 45 -136 67 -163 67
c-5 0 -8 -1 -11 -3c-3 -3 -4 -5 -4 -7c1 -20 115 -102 142 -117l5 -2c4 -1 7 -2 9 -2c13 0 23 6 30 17z" />
    <glyph glyph-name="guillemotleft" unicode="&#xab;" 
d="M133 700h534c73 0 133 -60 133 -133v-534c0 -73 -60 -133 -133 -133h-534c-8 0 -17 1 -27 3c-30 6 -55 21 -75 45c-21 26 -31 54 -31 85v534c0 73 60 133 133 133zM700 50v250l-43 50h-57v100l-150 150h-250v-250h-50l-50 -50v-250h100v-50h400v50h100zM400 550v-150h150
v-50h-300v200h150zM150 290v-50h50v50h-50zM250 200h300v-150h-300v150zM600 200v-100h50v100h-50zM300 150v-50h200v50h-200z" />
    <glyph glyph-name="quotedbl" unicode="&#x22;" 
 />
    <glyph glyph-name="quotesingle" unicode="'" 
d="M133 700h534c73 0 133 -60 133 -133v-534c0 -73 -60 -133 -133 -133h-534c-9 0 -18 1 -27 3c-60 12 -106 66 -106 130v534c0 73 60 133 133 133zM751 37v263h-351v350h-253c-47 0 -98 -48 -98 -87v-263h351v-350h252c48 0 99 48 99 87z" />
    <glyph glyph-name="CR" unicode="&#xd;" horiz-adv-x="333" 
 />
    <glyph glyph-name=".null" horiz-adv-x="0" 
 />
    <glyph glyph-name="uni00A0" unicode="&#xa0;" 
d="M405 700c43 0 82 -8 115 -24c33 -15 59 -37 77 -66c19 -27 28 -57 28 -90c0 -26 -5 -48 -16 -67c-10 -19 -22 -36 -37 -50c-11 -11 -36 -34 -76 -71c-10 -8 -18 -16 -25 -24c-8 -11 -13 -17 -14 -20c-1 -1 -3 -7 -7 -17c-1 -4 -6 -23 -7 -31c-6 -31 -24 -47 -54 -47
c-15 0 -28 5 -39 15s-16 25 -16 46c0 25 4 47 12 65c7 17 17 34 31 49c16 17 33 34 52 50l42 38c9 10 16 20 21 29c6 10 9 21 9 34c0 23 -9 44 -27 61c-19 17 -42 25 -69 25c-32 0 -56 -8 -73 -25c-17 -19 -30 -43 -39 -74c-11 -34 -31 -51 -58 -51c-17 0 -31 6 -43 18
c-11 11 -17 24 -17 38c0 29 9 58 27 87c19 30 45 54 80 73s76 29 123 29zM346 132c13 13 29 20 48 20s35 -7 48 -20s19 -29 19 -48c0 -21 -7 -38 -20 -49c-13 -12 -28 -18 -47 -18c-18 0 -34 6 -48 18c-13 12 -20 28 -20 49c0 19 7 35 20 48z" />
    <glyph glyph-name="degree" unicode="&#xb0;" 
d="M133 700h534c73 0 133 -60 133 -133v-534c0 -73 -60 -133 -133 -133h-534c-9 0 -18 1 -26 3c-61 12 -107 66 -107 130v534c0 73 60 133 133 133z" />
    <glyph glyph-name="uni02D5" unicode="&#x2d5;" 
d="M133 700h533c73 0 134 -60 134 -133v-534c0 -73 -61 -133 -134 -133h-533c-9 0 -18 1 -27 3c-61 12 -106 66 -106 130v534c0 73 60 133 133 133zM137 212c116 -117 293 60 177 177c-117 116 -294 -61 -177 -177zM487 212c116 -117 293 60 177 177
c-117 116 -294 -61 -177 -177z" />
    <glyph glyph-name="uni0E3F" unicode="&#xe3f;" horiz-adv-x="1400" 
d="M680 700c253 0 472 -164 545 -399c-73 -235 -292 -399 -545 -399c-252 0 -471 164 -544 399c73 233 292 399 544 399zM680 39c145 0 263 117 263 262s-118 262 -263 262c-144 0 -262 -117 -262 -262s118 -262 262 -262zM680 400c130 0 130 -198 0 -198s-128 198 0 198z
" />
    <glyph glyph-name="dollar" unicode="$" horiz-adv-x="1600" 
d="M1425 550h-1250c-99 0 -99 150 0 150h1250c99 0 99 -150 0 -150zM1425 250h-1250c-99 0 -99 150 0 150h1250c99 0 99 -150 0 -150zM175 100h1250c99 0 99 -150 0 -150h-1250c-99 0 -99 150 0 150z" />
    <glyph glyph-name="uni20A6" unicode="&#x20a6;" horiz-adv-x="1400" 
d="M1153 689l-115 -115c89 -72 151 -163 186 -273c-73 -235 -291 -400 -544 -400c-89 0 -174 20 -254 60l-131 -130l-81 80l113 113c-92 72 -156 164 -191 277c73 233 292 399 544 399c91 0 178 -21 260 -63l132 133zM418 301c0 -51 14 -99 42 -143l123 123
c-1 8 -2 15 -2 20c0 53 44 98 99 98c9 0 16 -1 20 -2l123 124c-44 28 -92 42 -143 42c-145 0 -262 -118 -262 -262zM680 39c145 0 262 117 262 262c0 51 -13 97 -39 138l-125 -125c1 -3 1 -8 1 -13c0 -55 -44 -99 -99 -99c-6 0 -10 0 -13 1l-125 -125c41 -26 87 -39 138 -39
z" />
    <glyph glyph-name="yen" unicode="&#xa5;" 
d="M133 700h534c73 0 133 -60 133 -133v-534c0 -73 -60 -133 -133 -133h-534c-9 0 -18 1 -26 3c-31 6 -56 21 -76 45c-21 25 -31 53 -31 85v534c0 73 60 133 133 133zM454 195c35 42 50 94 45 155h-199v-74c45 1 82 1 111 0c-10 -34 -30 -56 -59 -65c-65 -29 -148 8 -168 76
c-25 64 15 142 82 161c35 13 75 5 120 -23c6 5 23 23 51 53c-45 37 -93 53 -145 49c-104 -1 -195 -97 -191 -200c-1 -83 56 -162 136 -189c73 -27 168 -4 217 57zM700 300v50h-50v50h-50v-50h-50v-50h50v-50h50v50h50z" />
    <glyph glyph-name="greater" unicode="&#x3e;" 
d="M100 700l600 -401l-600 -399v800z" />
    <glyph glyph-name="less" unicode="&#x3c;" 
d="M50 650h250v-700h-250v700zM500 650h250v-700h-250v700z" />
    <glyph glyph-name="asciitilde" unicode="~" 
d="M645 378l-1 -1c-23 -93 -121 -259 -192 -355l-52 -72c-15 20 -35 46 -58 80c-24 33 -58 87 -102 164c54 -98 -61 91 -84 184c-19 80 6 165 67 225c49 47 108 71 177 71s129 -24 178 -71c61 -60 86 -145 67 -225zM312 348c116 -114 294 58 177 171
c-118 113 -293 -59 -177 -171z" />
    <glyph glyph-name="asciicircum" unicode="^" 
d="M153 548c136 136 358 136 495 0c136 -137 136 -359 0 -495c-137 -137 -359 -137 -495 0c-137 136 -137 358 0 495zM335 475h15v-31c-87 -23 -150 -102 -150 -194c0 -263 400 -263 400 0c0 92 -62 171 -150 194v31h15c7 0 10 3 10 10v55c0 7 -3 10 -10 10h-130
c-7 0 -10 -3 -10 -10v-55c0 -7 3 -10 10 -10zM501 313c15 0 25 -1 29 -4c1 -1 1 -1 1 -2c9 -19 13 -39 13 -59c0 -80 -65 -145 -145 -145c-73 0 -135 55 -144 128v1c6 8 19 17 38 26c27 14 58 26 93 36c45 13 84 19 115 19zM354 177c15 0 27 12 27 28c0 15 -12 27 -27 27
c-16 0 -28 -12 -28 -27c0 -16 12 -28 28 -28zM444 159c37 0 37 55 0 55c-35 0 -36 -55 0 -55z" />
    <glyph glyph-name="percent" unicode="%" horiz-adv-x="805" 
d="M100 600h600v-600h-600v600zM650 50v500h-500v-500h500zM220 250v100h360v-100h-360z" />
    <glyph glyph-name="uni2031" unicode="&#x2031;" 
d="M400 499c97 143 300 70 300 -100c0 -111 -98 -189 -175 -249c-73 -57 -115 -90 -125 -100c-24 24 -70 57 -125 100c-77 61 -175 137 -175 248c0 170 203 244 300 101z" />
    <glyph glyph-name="uniFF5E" unicode="&#xff5e;" 
d="M690 516c13 -48 14 -96 3 -145v-2c-18 -71 -66 -166 -143 -287c-24 -38 -91 -135 -104 -150l-6 -9l-40 -52l-40 52l-6 9c-13 17 -70 98 -104 151c-78 120 -126 216 -143 287v2c-11 49 -10 97 4 144c15 49 40 92 77 128c31 29 64 50 99 63c35 15 73 22 113 22
s78 -7 113 -22c37 -14 70 -35 99 -63c38 -37 64 -79 78 -128zM453 388c69 66 -36 166 -106 100c-69 -66 36 -166 106 -100z" />
    <glyph glyph-name="null.001" horiz-adv-x="600" 
 />
    <glyph glyph-name="space" unicode=" " horiz-adv-x="600" 
 />
  </font>
</defs>
</svg>
